+ ShareSpark.net »  :::: Bollywood Zone » Bollywood Movies (Original Rips) » High Resolution Movies
|- Haseena Parkar (2017) Hindi 1080p WebHD x264 AC3 2.0...Hon3y (With Archive Link)


New Promotions of ShareSpark Member's (January 2018) New
Tag users in topic | Receive notifications when you are tagged

Haseena Parkar (2017) Hindi 1080p WebHD x264 AC3 2.0...Hon3y (With Archive Link)

0 Members and 1 Guest are viewing this topic.

January 14, 2018, 12:26:50 PM
  • Global Moderator
  • Legend Member
  • *****
  • Topic Author
  • Thank You: 4630
  • Reputation: 913
  • Activity:
    100%
  • Country: in
  • Posts: 3653
  • Topics: 3069
  • Join Date: Jan 2014
  • ıllıllı ѕмoĸιng ιѕ good ғor нealтн ıllıllı :)
Haseena Parkar (2017) Hindi 1080p WebHD x264 AC3 2.0...Hon3y



Quote

General
Format                                   : Matroska
Format version                           : Version 4 / Version 2
File size                                : 3.00 GiB
Duration                                 : 1 h 57 min
Overall bit rate                         : 3 648 kb/s
Movie name                               : Haseena Parkar---Pasha@Hon3yHD

Video
Format                                   : AVC
Format/Info                              : Advanced Video Codec
Format profile                           : [email protected]
Format settings, CABAC                   : Yes
Format settings, RefFrames               : 5 frames
Codec ID                                 : V_MPEG4/ISO/AVC
Duration                                 : 1 h 57 min
Bit rate                                 : 3 455 kb/s
Width                                    : 1 920 pixels
Height                                   : 816 pixels
Display aspect ratio                     : 2.35:1
Frame rate mode                          : Constant
Frame rate                               : 24.000 FPS
Color space                              : YUV
Chroma subsampling                       : 4:2:0
Bit depth                                : 8 bits
Scan type                                : Progressive
Bits/(Pixel*Frame)                       : 0.092
Stream size                              : 2.84 GiB (95%)
Title                                    : Haseena Parkar---Pasha@Hon3yHD

Audio 1
Format                                   : AC-3
Format/Info                              : Audio Coding 3
Format settings, Endianness              : Big
Codec ID                                 : A_AC3
Duration                                 : 1 h 57 min
Bit rate mode                            : Constant
Bit rate                                 : 192 kb/s
Channel(s)                               : 2 channels
Channel positions                        : Front: L R
Sampling rate                            : 48.0 kHz
Frame rate                               : 31.250 FPS (1536 SPF)
Bit depth                                : 16 bits
Compression mode                         : Lossy
Stream size                              : 162 MiB (5%)
Title                                    : Hindi---Pasha@Hon3yHD
Language                                 : Hindi
Service kind                             : Complete Main
Default                                  : Yes
Forced                                   : No

:ss:






:download:

Quote











File Leeched & Uploaded From




Don't walk as you are king, walk as you don't care who the king is....!!
Never argue with an idiot. They drag you down to their level and then beat you with experience?

Share this topic on FacebookShare this topic on GoogleShare this topic on MySpaceShare this topic on TwitterShare this topic on Yahoo




Don't walk as you are king, walk as you don't care who the king is....!!

Thanks given by:


January 14, 2018, 12:37:29 PM
Reply #1
  • Devoted Member
  • **
  • Thank You: 0
  • Reputation: -1
  • Activity:
    13.6%
  • Country: np
  • Posts: 122
  • Topics: 0
  • Join Date: Jul 2016
  • ShareSpark Member

Tags:
 

Related Topics





Back to top