+ ShareSpark.net »  :::: Dubbed Zone (Dubbed English in Hindi) » English Movies Dubbed in Hindi » Small Size Dubbed Movies
|- Matilda 1996 720p Esub BluRay Dual Audio English Hindi 470mb GOPISAHI


New Promotions of ShareSpark Member's (January 2018) New
Tag users in topic | Receive notifications when you are tagged

Matilda 1996 720p Esub BluRay Dual Audio English Hindi 470mb GOPISAHI

0 Members and 1 Guest are viewing this topic.

January 14, 2018, 12:58:54 PM
  • Team SSX
  • Hero Member
  • ***
  • Topic Author
  • Thank You: 65
  • Reputation: -2
  • Activity:
    90.6%
  • Country: us
  • Posts: 377
  • Topics: 243
  • Join Date: May 2017
  • #Me


 :plot:

Format                         : Matroska
Format version                 : Version 4 / Version 2
File size                      : 470 MiB
Duration                       : 1 h 38 min
Overall bit rate               : 669 kb/s
Movie name                     : Matilda 1996 GOPISAHI

Video
Format                         : AVC
Codec ID                       : V_MPEG4/ISO/AVC
Duration                       : 1 h 38 min
Bit rate                       : 500 kb/s
Width                          : 1 280 pixels
Height                         : 536 pixels
Display aspect ratio           : 2.40:1
Frame rate mode                : Constant
Frame rate                     : 23.976 (24000/1001) FPS
Stream size                    : 351 MiB (75%)
Title                          : GOPISAHI
Writing library                : x264

Audio #1
Format                         : AAC
Duration                       : 1 h 38 min
Bit rate                       : 86.3 kb/s
Channel(s)                     : 6 channels
Channel positions              : Front: L C R, Side: L R, LFE
Sampling rate                  : 44.1 kHz
Frame rate                     : 43.066 FPS (1024 SPF)
Compression mode               : Lossy
Stream size                    : 60.6 MiB (13%)
Language                       : English

Audio #2
Format                         : AAC
Duration                       : 1 h 38 min
Bit rate                       : 80.2 kb/s
Channel(s)                     : 6 channels
Channel positions              : Front: L C R, Side: L R, LFE
Sampling rate                  : 44.1 kHz
Frame rate                     : 43.066 FPS (1024 SPF)
Compression mode               : Lossy
Stream size                    : 56.3 MiB (12%)
Language                       : Hindi

Text
Language                       : English


 :ss: :ss:




 :download: :download:







Share this topic on FacebookShare this topic on GoogleShare this topic on MySpaceShare this topic on TwitterShare this topic on Yahoo




Tags: new 
 

Related Topics





Back to top