+ ShareSpark.net »  :::: Bollywood Zone » Bollywood Movies (Original Rips) » High Resolution Movies
|- Tumhari Sulu 2017 1080p WEB-HD x264 ESub-TEAM Moviezworldz


New Promotions of ShareSpark Member's (January 2018) New
Tag users in topic | Receive notifications when you are tagged

Tumhari Sulu 2017 1080p WEB-HD x264 ESub-TEAM Moviezworldz

0 Members and 1 Guest are viewing this topic.

January 14, 2018, 03:36:46 PM
  • Team SSX
  • Devoted Member
  • ***
  • Topic Author
  • Thank You: 24
  • Reputation: 20
  • Activity:
    38.2%
  • Country: fr
  • Posts: 181
  • Topics: 108
  • Join Date: Dec 2017
  • ShareSpark Member
Tumhari Sulu 2017 1080p WEB-HD x264 ESub



General
Format                      : Matroska
Format version              : Version 4 / Version 2
File size                   : 2.00 GiB
Duration                    : 2 h 14 min
Overall bit rate            : 2 127 kb/s

Video
ID                          : 1
Format                      : AVC
Format/Info                 : Advanced Video Codec
Format profile              : [email protected]
Format settings             : CABAC / 4 Ref Frames
Format settings, CABAC      : Yes
Format settings, ReFrames   : 4 frames
Codec ID                    : V_MPEG4/ISO/AVC
Duration                    : 2 h 14 min
Bit rate                    : 2 000 kb/s
Width                       : 1 920 pixels
Height                      : 1 080 pixels
Display aspect ratio        : 16:9
Frame rate mode             : Constant
Frame rate                  : 25.000 FPS
Color space                 : YUV
Chroma subsampling          : 4:2:0
Bit depth                   : 8 bits
Scan type                   : Progressive
Bits/(Pixel*Frame)          : 0.039
Stream size                 : 1.88 GiB (94%)
Writing library             : x264 core 148 r2708 86b7198
Default                     : Yes
Forced                      : No

Audio
ID                          : 3
Format                      : AAC
Format/Info                 : Advanced Audio Codec
Format profile              : LC
Codec ID                    : A_AAC-2
Duration                    : 2 h 14 min
Bit rate                    : 128 kb/s
Channel(s)                  : 2 channels
Channel positions           : Front: L R
Sampling rate               : 44.1 kHz
Frame rate                  : 43.066 FPS (1024 SPF)
Compression mode            : Lossy
Stream size                 : 123 MiB (6%)
Language                    : Hindi
Default                     : Yes
Forced                      : No

Text
ID                          : 2
Format                      : UTF-8
Codec ID                    : S_TEXT/UTF8
Codec ID/Info               : UTF-8 Plain Text
Duration                    : 2 h 12 min
Bit rate                    : 62 b/s
Count of elements           : 2082
Stream size                 : 60.5 KiB (0%)
Default                     : Yes
Forced                      : No
















Code: [Select]
http://www.indishare.me/7zfhkkf5g3b4
http://bdupload.info/g05kgjkcgqth
http://openload.co/f/pf_SxuboZc8/
http://uptobox.com/s5g3uoz0lyjy
http://filecloud.io/iskm8qyx5

Share this topic on FacebookShare this topic on GoogleShare this topic on MySpaceShare this topic on TwitterShare this topic on Yahoo

« Last Edit: January 14, 2018, 04:55:11 PM by ★Complex★ »



Tags:
 

Related Topics





Back to top